Guitar Legends 1992 - Full Concert

By: Screen Rant

3,899 views

Uploaded on November 02, 2011 by BornAgain1970 Powered by YouTube

Cozy Powell 4ever!

Upload and Rip by SNV/CP4ever

General
Complete name : /media/SNVVideos Filmes Shows/Guitar.Legends.Hard.Rock.DVD.05.1992.[by.SNV-CP4ever].avi
Format : AVI
Format/Info : Audio Video Interleave
File size : 790 MiB
Duration : 1h 29mn
Overall bit rate : 1 229 Kbps

Video
ID : 0
Format : AVC
Format/Info : Advanced Video Codec
Format profile : High@L3.0
Format settings, CABAC : Yes
Format settings, ReFrames : 4 frames
Codec ID : H264
Duration : 1h 29mn
Bit rate : 1 087 Kbps
Width : 720 pixels
Height : 480 pixels
Display aspect ratio : 4:3
Frame rate mode : Variable
Frame rate : 29.970 fps
Standard : NTSC
Color space : YUV
Chroma subsampling : 4:2:0
Bit depth : 8 bits
Scan type : Progressive
Bits/(Pixel*Frame) : 0.105
Stream size : 699 MiB (88%)
Writing library : x264 core 106 r1732 b20059a
Encoding settings : cabac=1 / ref=3 / deblock=1:0:0 / analyse=0x3:0x113 / me=hex / subme=7 / psy=1 / psy_rd=1.00:0.00 / mixed_ref=1 / me_range=16 / chroma_me=1 / trellis=1 / 8x8dct=1 / cqm=0 / deadzone=21,11 / fast_pskip=1 / chroma_qp_offset=-2 / threads=1 / sliced_threads=0 / nr=0 / decimate=1 / interlaced=0 / constrained_intra=0 / bframes=3 / b_pyramid=2 / b_adapt=1 / b_bias=0 / direct=1 / weightb=1 / open_gop=0 / weightp=2 / keyint=250 / keyint_min=25 / scenecut=40 / intra_refresh=0 / rc_lookahead=40 / rc=crf / mbtree=1 / crf=26.0 / qcomp=0.60 / qpmin=10 / qpmax=51 / qpstep=4 / ip_ratio=1.40 / aq=1:1.00

Audio
ID : 1
Format : MPEG Audio
Format version : Version 1
Format profile : Layer 3
Codec ID : 55
Codec ID/Hint : MP3
Duration : 1h 29mn
Source duration : 1h 29mn
Bit rate mode : Constant
Bit rate : 128 Kbps
Channel(s) : 2 channels
Sampling rate : 48.0 KHz
Compression mode : Lossy
Stream size : 82.3 MiB (10%)
Alignment : Split accross interleaves
Interleave, duration : 24 ms (0.72 video frame)

Tags:
Guitar, Legends, 1992, Music & Dance

ALSO FROM THIS CHANNEL

Comments on Guitar Legends 1992 - Full Concert

RECOMMENDED CHANNELS